Saturday , 21 April 2018

Room No 103 Bengali Full Movie 720p HDRip

Room No 103 Bengali Full Movie 720p HDRip

General
Format : Matroska
Format version : Version 2
File size : 699 MiB
Duration : 2 h 23 min

Video
ID : 1
Format : AVC
Format/Info : Advanced Video Codec
Duration : 2 h 23 min
Bit rate : 598 kb/s
Width : 560 pixels
Height : 232 pixels
Display aspect ratio : 2.40:1
Frame rate mode : Constant
Frame rate : 25.000 FPS
Color space : YUV
Chroma subsampling : 4:2:0
Bit depth : 8 bits
Scan type : Progressive
Bits/(Pixel*Frame) : 0.184
Stream size : 615 MiB (88%)

Audio
ID : 2
Format : AAC
Format/Info : Advanced Audio Codec
Format profile : HE-AAC / LC
Format settings : Explicit
Codec ID : A_AAC-2
Duration : 2 h 23 min
Bit rate : 80.0 kb/s
Channel(s) : 2 channels
Channel positions : Front: L R
Sampling rate : 48.0 kHz / 24.0 kHz
Stream size : 82.2 MiB (12%)

bdupload. Download Link
OR
Bduploadmor. Download Link
OR
indishare Download Link
OR
Mirrorace Download Link
OR
hdupload.net Download Link

OR
clicknupload Download Link
OR
9xupload.me Download Link
OR
uptobox Download Link
OR
openload Download Link

OR
uploads.to Download Link

Share This Post For Your Friends

Leave a Reply

Your email address will not be published. Required fields are marked *

*