Friday , 23 February 2018

Kellafate (Bengali Movie) – 2CD – HD Rip[Mp4 – AAC3(2Ch)]

Kellafate (Bengali Movie) – 2CD –
HD Rip[Mp4 – AAC3(2Ch)]

Media Info

General
Format                                   : MPEG-4
Format profile                           : Base Media
Codec ID                                 : isom (isom)
File size                                : 1.40 GiB
Duration                                 : 2 h 56 min

Video
ID                                       : 1
Format                                   : AVC
Format/Info                              : Advanced Video Codec
Format profile                           : High@L3
Format settings, CABAC                   : Yes
Format settings, RefFrames               : 4 frames
Codec ID                                 : avc1
Codec ID/Info                            : Advanced Video Coding
Duration                                 : 2 h 56 min
Bit rate                                 : 1 007 kb/s
Maximum bit rate                         : 4 593 kb/s
Width                                    : 720 pixels
Height                                   : 304 pixels
Display aspect ratio                     : 2.35:1
Frame rate mode                          : Constant
Frame rate                               : 25.000 FPS
Color space                              : YUV
Chroma subsampling                       : 4:2:0
Bit depth                                : 8 bits
Scan type                                : Progressive
Bits/(Pixel*Frame)                       : 0.184
Stream size                              : 1.24 GiB (88%)

Audio
ID                                       : 2
Format                                   : AAC
Format/Info                              : Advanced Audio Codec
Format profile                           : LC
Codec ID                                 : 40
Duration                                 : 2 h 56 min
Bit rate mode                            : Variable
Bit rate                                 : 128 kb/s
Maximum bit rate                         : 135 kb/s
Channel(s)                               : 2 channels
Channel positions                        : Front: L R
Sampling rate                            : 48.0 kHz
Stream size                              : 162 MiB (11%)

Screen Shot

bdupload. Download Link
bdupload. Download Link
OR
indishare Download Link
indishare Download Link
OR
openload Download Link
openload Download Link
OR
9xupload Download Link
9xupload Download Link
OR
uploads.to Download Link
uploads.to Download Link

 

Share This Post For Your Friends

Leave a Reply

Your email address will not be published. Required fields are marked *

*